<?xml version="1.0" standalone="no"?>
<!DOCTYPE svg PUBLIC "-//W3C//DTD SVG 1.1//EN" "http://www.w3.org/Graphics/SVG/1.1/DTD/svg11.dtd" >
<svg xmlns="http://www.w3.org/2000/svg">
<metadata></metadata>
<defs>
<font id="kingthings_italiqueregular" horiz-adv-x="775" >
<font-face units-per-em="2048" ascent="1638" descent="-410" />
<missing-glyph horiz-adv-x="267" />
<glyph horiz-adv-x="2048" />
<glyph horiz-adv-x="2048" />
<glyph unicode="&#xd;" horiz-adv-x="390" />
<glyph unicode=" "  horiz-adv-x="267" />
<glyph unicode="&#x09;" horiz-adv-x="267" />
<glyph unicode="&#xa0;" horiz-adv-x="267" />
<glyph unicode="!" horiz-adv-x="371" d="M129 -38l1 -218l174 138v242zM23 1166l24 -32l85 104l-2 -1064l174 138v1116l81 90l-25 29z" />
<glyph unicode="&#x22;" horiz-adv-x="494" d="M7 1315q91 -87 92 -158l-100 -112l34 -27l248 277q-49 122 -120 182zM227 1315q91 -87 92 -158l-100 -112l34 -27l248 277q-49 122 -120 182z" />
<glyph unicode="#" horiz-adv-x="1061" d="M220 108l14 -77l334 1175l-98 103zM520 108l14 -77l334 1175l-98 103zM976 836l46 34l-845 31l-79 -92zM886 556l46 34l-845 31l-79 -92z" />
<glyph unicode="$" horiz-adv-x="636" d="M328 1298q-67 -118 -145 -227t-93.5 -170t22 -119.5t205.5 -191t131 -272.5l-47 -96q-27 102 -151.5 184t-67.5 185l-23 18l-121 -195q-38 -134 116.5 -243t176.5 -169l23 -13q187 369 225 471t26.5 165t-93 142t-181.5 150.5t-99 158.5h240l120 223zM327 1512l1 -1869 l62 114v1880z" />
<glyph unicode="%" horiz-adv-x="836" d="M415 585zM41.5 838.5q63.5 -179.5 178.5 -269.5q138 230 177.5 316t18.5 191t-185 223q-253 -281 -189.5 -460.5zM313 786l-34 -58q-183 208 -138 420q187 -104 172 -362zM150 -242l14 -77l504 1645l-98 103zM775 5zM795 -5zM441.5 248.5q63.5 -179.5 178.5 -269.5 q138 230 177.5 316t18.5 191t-185 223q-253 -281 -189.5 -460.5zM713 196l-34 -58q-183 208 -138 420q187 -104 172 -362z" />
<glyph unicode="&#x26;" horiz-adv-x="926" d="M340 1299q-182 -174 -229 -290t9 -250l39 -78q-177 -245 -125 -432.5t277 -263.5l198 231q139 -189 228 -226l226 278l-26 24l-91 -106q-70 19 -235 234l298 394l-19 11l-212 -2q98 213 -12 290l-11 1q121 -85 -32 -290l-155 -191l19 -15q55 45 150 36l96 3l-161 -207 q-406 518 -368 628l64 63q112 -94 149.5 -198t-21.5 -199l16 -22l130 235q12 96 -31.5 170t-170.5 172zM469 255l-67 -87q-98 -14 -217.5 149t2.5 331q144 -204 282 -393z" />
<glyph unicode="'" horiz-adv-x="262" d="M7 1317q91 -87 92 -158l-100 -112l34 -27l248 277q-49 122 -120 182z" />
<glyph unicode="(" horiz-adv-x="297" d="M116.5 1057.5q-68.5 -227.5 -87 -445t27 -492.5t161.5 -490l90 127q-374 793 -6 1695l-21 15q-96 -182 -164.5 -409.5z" />
<glyph unicode=")" horiz-adv-x="308" d="M215.5 40.5q68.5 227.5 87 445t-27 492.5t-161.5 490l-90 -127q374 -793 6 -1695l21 -15q96 182 164.5 409.5z" />
<glyph unicode="*" horiz-adv-x="355" d="M150 1376l4 -113l-78 115l-19 -80l63 -88h-88l-31 -81l114 12l-71 -72l18 -103l90 125l-8 -132l73 -42l-11 176l94 -131l18 99l-75 80l96 -1l33 89l-134 -19l65 83l-17 81l-79 -108l8 155z" />
<glyph unicode="+" horiz-adv-x="795" d="M314 858v-171h-160l-126 -179l278 12v-354l131 172l20 192l185 20l142 140h-321l11 316z" />
<glyph unicode="," horiz-adv-x="263" d="M-10 162q91 -87 92 -158l-100 -112l34 -27l248 277q-49 122 -120 182z" />
<glyph unicode="-" d="M571 640h-333q-158 -13 -222 -231l16 -13q49 76 143 72h396q113 21 186 247l-9 16q-81 -94 -177 -91z" />
<glyph unicode="." horiz-adv-x="274" d="M-10 162q91 -87 112 -188l162 148q-49 142 -120 202z" />
<glyph unicode="/" horiz-adv-x="485" d="M-40 -242l104 -97l414 1665l-98 103z" />
<glyph unicode="0" horiz-adv-x="649" d="M45.5 471.5q124.5 -321.5 281.5 -480.5q220 412 281.5 565.5t29 341.5t-291.5 400q-425 -505 -300.5 -826.5zM450 338l-63 -121q-371 491 -128 870q337 -241 191 -749zM207 721q78 -75 96 -161l138 126q-42 122 -102 173z" />
<glyph unicode="1" horiz-adv-x="448" d="M341 1292l-26 18l-276 -289l29 -14l85 83l-1 -887l-145 -206h344l138 194l-287 2q80 64 136 194z" />
<glyph unicode="2" horiz-adv-x="617" d="M91 951q-62 -149 -20.5 -272.5t147.5 -186.5l116 176q-257 230 -59 471q99 -101 158 -300t-394 -841l371 2l192 236l-340 2q305 370 342.5 578.5t-234.5 498.5v0q-217 -215 -279 -364z" />
<glyph unicode="3" horiz-adv-x="653" d="M195 1295l-195 -257l26 -22l70 86h302l-256 -346l32 -12q68 87 167 29t150 -224t-97 -353q-45 267 -221 455l-163 -197q171 -112 286 -486q193 283 277.5 408.5t56.5 307.5q-25 196 -256 307l218 305z" />
<glyph unicode="4" horiz-adv-x="653" d="M210 1202q-163 -898 -240 -968l28 -32q41 89 280 68v-81l-163 -191l302 2l169 202l-30 15q-81 -59 -222 -35q72 43 85 92h156l109 221l-14 24q-104 -67 -246 -60v279q-17 116 48 205l-11 24l-191 -233l2 -281l-134 1q215 846 309 914l-8 31z" />
<glyph unicode="5" horiz-adv-x="603" d="M219 1298l-155 -206v-527l32 -12q41 76 150 178q154 -217 158 -326.5t-40 -206.5q-45 73 -124.5 124.5t-70.5 144.5l55 62l-26 27l-190 -233q0 -125 100 -202.5t116 -140.5q70 55 211 271t135.5 320.5t-58 156t-73 102.5t-10.5 137l-247 -255l-1 376h235l138 183l-12 27 h-323z" />
<glyph unicode="6" horiz-adv-x="555" d="M136 1086.5q-84 -195.5 -103 -313t-5 -243.5t46.5 -221.5t210.5 -337.5q187 286 226 406t24.5 240.5t-73 195t-96.5 103.5l-194 -324q-38 199 13 424.5t181 374.5l-25 17q-121 -126 -205 -321.5zM383 553.5q37 -86.5 30.5 -184t-63.5 -173.5q-54 64 -95 160.5t-65 190.5 l90 152q66 -59 103 -145.5z" />
<glyph unicode="7" horiz-adv-x="567" d="M160 1280l-151 -258l44 -19q4 81 132 76l239 1q-346 -659 -312 -837.5t180 -242.5l209 263l-17 17q-76 -62 -128.5 -36.5t-86.5 113.5t118.5 492.5t204.5 410.5v20h-432z" />
<glyph unicode="8" horiz-adv-x="539" d="M54.5 876.5q65.5 -153.5 198 -302t146.5 -229.5t-22 -145l-21 -21q-303 320 -167 450l-28 27q-191 -176 -126 -366.5t231 -303.5q198 254 233.5 348.5t6.5 210.5t-214 309.5t-99 321.5q231 -109 118 -327l30 -24q285 364 -53 489q-299 -284 -233.5 -437.5z" />
<glyph unicode="9" horiz-adv-x="561" d="M433 270q79 182 98 292t5 227.5t-46.5 206.5t-190.5 315q-207 -267 -246 -379t-24.5 -224.5t88 -182t111.5 -96.5l164 302q38 -185 16 -350.5t-86 -234.5q-37 192 -174 236l-148 -168q128 19 233 -244q121 118 200 300zM181 767.5q-37 80.5 -30.5 171.5t63.5 162 q54 -60 95 -150t65 -178l-90 -141q-66 55 -103 135.5z" />
<glyph unicode=":" horiz-adv-x="280" d="M-10 162q91 -87 112 -188l162 148q-49 142 -120 202zM-10 532q91 -87 112 -188l162 148q-49 142 -120 202z" />
<glyph unicode=";" horiz-adv-x="266" d="M-10 532q91 -87 112 -188l162 148q-49 142 -120 202zM-10 162q91 -87 92 -158l-100 -112l34 -27l248 277q-49 122 -120 182z" />
<glyph unicode="&#x3c;" horiz-adv-x="654" d="M584 339q-112 222 -385 304l413 290l-8 8l-579 -347l-1 -35q306 -111 452 -362z" />
<glyph unicode="=" horiz-adv-x="819" d="M606 770h-348q-134 -48 -232 -201l16 -13q52 76 150 72l413 -30q98 48 195 247l-10 16q-85 -94 -184 -91zM606 560h-348q-131 -48 -232 -201l16 -13q52 76 150 72l413 -30q96 46 195 247l-10 16q-85 -94 -184 -91z" />
<glyph unicode="&#x3e;" horiz-adv-x="644" d="M72 809q112 -222 385 -304l-413 -290l8 -8l579 347l1 35q-306 111 -452 362z" />
<glyph unicode="?" horiz-adv-x="494" d="M61 723l124 157q24 124 -108 176l76 99q137 -97 182 -302.5t-104 -364.5l-104 -79l-1 -319l178 161l-1 257q130 127 175 280.5t-43 336.5t-223 268l-276 -471q160 -34 125 -199zM129 -38l1 -218l174 138v242z" />
<glyph unicode="@" horiz-adv-x="1060" d="M320.5 1041q-93.5 -85 -175.5 -226t-106.5 -282.5t18.5 -282t355 -402.5l263 313l-25 18q-132 -189 -298 -34t-191.5 360.5t51 332t171.5 183.5t217 14.5t216 -162t96.5 -232.5t-54.5 -196.5t-116.5 -47t-46.5 406.5l56 118h-281q-183 -168 -207.5 -332t183.5 -365 l142 142q30 -127 130 -141q252 246 312.5 411t-65 338t-380.5 266q-171 -115 -264.5 -200zM624 780l-53 -82l-1 -298q-83 -55 -171.5 136.5t23.5 243.5h202z" />
<glyph unicode="A" horiz-adv-x="836" d="M371 1089q17 160 -57 258l-190 -222l12 -28q83 76 89 -32l-32 -352l-108 -13l-165 -234l21 -13q57 68 120 72l119 1l-40 -315l-187 -213l308 1l191 234l-22 14q-49 -66 -248 -45q81 56 118 170l21 162l161 2q53 51 143 227l-10 14q-51 -71 -111 -65l-170 1l40 322l93 98 q226 -360 195.5 -676t-328.5 -671q114 -12 234.5 -120.5t229.5 -76.5l149 198l-44 28q-32 -115 -178.5 8.5t-232.5 92.5q208 216 293 476.5t-25.5 552.5t-172.5 405z" />
<glyph unicode="B" horiz-adv-x="819" d="M58 1041l26 -21l86 78q30 -3 32 -136l-2 -748l-140 -214h394l158 176q114 112 169.5 239.5t0.5 239.5t-214 163q145 130 151 245t-147 265l-192 -206q1 116 -68 206zM578 1021.5q34 -97.5 -46 -199.5q-99 -15 -148 -103v343l79 84q81 -27 115 -124.5zM560.5 612.5 q110.5 -104.5 114.5 -190t-22 -131t-101 -82.5h-296q108 46 125 214l1 212q68 82 178.5 -22.5zM69 765l1 -540q4 -169 -93 -185q138 0 136 182v538q0 177 121 229q-158 -38 -165 -224z" />
<glyph unicode="C" horiz-adv-x="588" d="M321 1299q-86 -84 -156.5 -212.5t-103 -216.5t-41 -232.5t53.5 -286t312 -355.5l224 348l-28 21l-81 -124q-124 15 -240 207.5t-105.5 395t72.5 262.5h200q-101 -156 23 -281l7 12q-106 118 22 265l141 198z" />
<glyph unicode="D" horiz-adv-x="762" d="M481 1289l-325 -3l-158 -225l33 -5l35 50h186q-73 -60 -104 -182v-731l-141 -196h384q394 385 361 682.5t-208 566.5q100 114 248 54l-23 12q-204 105 -396 -207q161 -210 248 -482t-151 -442l-274 2q78 61 132 185l5 737zM359 732l1 -330q4 -169 -93 -186q138 1 136 183 v328q0 177 121 229q-158 -38 -165 -224z" />
<glyph unicode="E" horiz-adv-x="629" d="M321 1299q-86 -84 -156.5 -212.5t-103 -216.5t-41 -232.5t53.5 -286t312 -355.5l224 348l-28 21l-81 -124q-102 9 -210.5 148.5t-143.5 302.5h193q-45 -98 58 -201l13 7q-103 115 -19 207l124 175l-288 -1l-93 -125q31 292 93 352l270 -1l116 194h-293z" />
<glyph unicode="F" horiz-adv-x="688" d="M551 1368l-234 -290q5 162 -84 242l-227 -283l30 -24l69 83q46 -2 43 -111v-768l-145 -218l283 1l122 203l-228 -2q100 48 128 141v355l117 -1q-65 -154 88 -185h18q-149 36 -74 184l126 162l-206 -1l-70 -100l1 244l130 164q2 -126 186 -198l138 143q-189 81 -211 259z M50 816l1 -540q4 -169 -93 -186q138 1 136 183v538q0 177 121 229q-159 -38 -165 -224z" />
<glyph unicode="G" horiz-adv-x="680" d="M341 1299q-95 -84 -172.5 -212.5t-113 -216.5t-45 -232.5t58.5 -286t252 -368.5l167 193q2 -185 -19.5 -243.5t-177.5 -242.5q106 12 267 -61.5t257 -56.5l110 168l-15 9q-54 -53 -227.5 24.5t-227.5 64.5q194 142 188 264l1 582q6 110 89 140l-11 21l-301 -1l-140 -235 h38l34 58h189q-45 -40 -64 -118v-313q-65 -121 -217 129.5t-121.5 465.5t99.5 275h296l159 254l-26 10l-46 -70zM279 867l1 -270q4 -169 -93 -185q138 0 136 182v268q0 177 121 229q-158 -38 -165 -224z" />
<glyph unicode="H" horiz-adv-x="873" d="M317 1077q6 186 -74 242l-227 -283l30 -24l69 83q46 -2 43 -111v-224l-216 -231l9 -24q71 100 207 93v-382l-145 -216l283 1l122 201l-228 -2q100 48 128 141v265h157q-65 -155 88 -186h18q-149 36 -74 184l70 82l2 80l-262 -1v312zM757 1077q6 186 -74 242l-227 -283 l30 -24l69 83q46 -2 43 -111v-768l-145 -216l283 1l122 201l-228 -2q100 48 128 141zM794 944l1 -540q4 -169 -93 -186q138 1 136 183v538q0 177 121 229q-159 -38 -165 -224z" />
<glyph unicode="I" horiz-adv-x="443" d="M491 1289l-365 -3l-158 -225l33 -5l35 50h186q-73 -60 -104 -182v-731l-141 -196h334l134 185l-279 1q78 61 132 185l4 737h91l165 218l-17 20zM23 873l1 -540q4 -169 -93 -185q138 0 136 182v538q0 177 121 229q-158 -38 -165 -224z" />
<glyph unicode="J" horiz-adv-x="800" d="M851 1289l-675 -3l-158 -225l33 -5l35 50h406q-73 -60 -104 -162v-538q14 -157 -7 -213q-161 220 -194 268t-41 120.5t36 107.5l-20 24l-198 -226q5 -82 56 -171.5t128.5 -179.5t58.5 -137l17 -7l167 169q57 41 114 125t63 222l4 597h181l165 218l-17 20zM596 876l1 -540 q4 -169 -93 -186q138 1 136 183v538q0 177 121 229q-159 -38 -165 -224z" />
<glyph unicode="K" horiz-adv-x="868" d="M366 646q114 18 233 -503.5t255 -576.5l185 198l-18 24l-71 -63q-82 19 -188.5 522t-241.5 569l348 483l-264 -1l-205 -262l35 -16q54 110 252 100l-320 -422v-52zM44 1075l30 -28l91 86l-2 -950l-129 -186l312 3l130 178h-261q85 71 130 202v938l110 114l-31 23zM63 804 l1 -540q4 -169 -93 -186q138 1 136 183v538q0 177 121 229q-158 -38 -165 -224z" />
<glyph unicode="L" horiz-adv-x="756" d="M541 1289l-395 -3l-158 -225l33 -5l35 50h186q-73 -60 -104 -182v-731l-141 -196h584l190 306q-199 91 -186 275l68 70l-32 15l-174 -187q16 -225 193 -292l-454 -1q78 61 132 185l4 737h71zM360 936l1 -540q4 -169 -93 -186q138 1 136 183v538q0 177 121 229 q-159 -38 -165 -224z" />
<glyph unicode="M" horiz-adv-x="1099" d="M316 993l-3 -71l115 139q64 0 48 -216l1 -653l-106 -193l280 1l111 200h-239q117 74 128 207v307v202l138 165q66 15 54 -245v-366q19 -370 -225 -757q136 35 238 -46t184 -98l192 255l-34 24l-79 -96q-60 -8 -152 80t-217 67q296 221 274 559l2 460q2 278 -104 385 l-271 -314q9 290 -59 332zM-44 963l27 -31l95 109q64 10 48 -196l1 -643l-116 -203l275 1l104 200l-220 -1q132 111 131 209v621q9 250 -59 292zM48 824l1 -540q4 -169 -93 -185q138 0 136 182v538q0 177 121 229q-159 -38 -165 -224z" />
<glyph unicode="N" horiz-adv-x="843" d="M-4 893l37 -41l85 129q54 10 49 -136v-443v-222l-126 -181l263 -1l113 197l-209 2q93 51 133 217v542l82 109q103 -21 162 -159t65 -303.5t-188 -605.5l258 2l152 255l-20 22q-50 -124 -255 -77q99 193 172.5 387t-9.5 413t-228 304l-191 -274q9 250 -59 292zM84 794 l1 -540q4 -169 -93 -185q138 0 136 182v538q0 177 121 229q-159 -38 -165 -224z" />
<glyph unicode="O" horiz-adv-x="627" d="M59.5 392.5q153.5 -367.5 248.5 -414.5q214 425 274 583.5t28 352t-283 412.5q-421 -566 -267.5 -933.5zM452 379l-85 -168q-342 555 -124 897q299 -368 209 -729z" />
<glyph unicode="P" horiz-adv-x="731" d="M20 1047l19 -33l72 76q38 -10 35 -175l-1 -682q-14 -146 -163 -233h326l168 187l-292 -5q92 35 135 161v156q39 -53 99 -77q37 57 147 183q87 95 134 205.5t-17.5 236.5t-189.5 266l-174 -212q9 147 -70 214zM564 687q-42 -86 -107.5 -65.5t-88.5 129.5l-47 -84l-1 352 l68 84q220 -220 176 -416zM46 796l1 -540q4 -169 -93 -186q138 1 136 183v538q0 177 121 229q-159 -38 -165 -224z" />
<glyph unicode="Q" horiz-adv-x="664" d="M38 484.5q104 -312.5 267 -465.5l-165 -310l37 -32l39 76q80 -6 276.5 -106.5t271.5 -57.5l235 354l-38 21l-87 -122q-126 -37 -308.5 45.5t-229.5 94.5q218 461 278.5 625.5t27 343t-288.5 369.5q-419 -523 -315 -835.5zM471 417l-60 -178q-368 432 -166 849 q300 -173 226 -671z" />
<glyph unicode="R" horiz-adv-x="915" d="M522.5 926.5q29.5 -192.5 -120.5 -288.5l-69 -59v483l79 84q81 -27 110.5 -219.5zM7 1041l26 -21l86 78q30 -3 33 -136l-3 -748l-140 -214h274l148 209h-226q108 46 125 214l1 92q80 103 152.5 13t133.5 -396q34 -111 121 -142l212 183l-19 29l-68 -58q-78 5 -116 221 t-163 315l-67 -2q185 173 171 336.5t-167 313.5l-192 -206q1 116 -68 206zM56 848l1 -540q4 -169 -93 -186q138 1 136 183v538q0 177 121 229q-159 -38 -165 -224z" />
<glyph unicode="S" horiz-adv-x="629" d="M328 1298q-67 -118 -145 -227t-93.5 -170t22 -119.5t225.5 -201.5q-62 -138 29 -235q-42 112 14 197q105 -84 68 -224l-47 -96q-27 102 -151.5 184t-67.5 185l-23 18l-121 -195q-38 -134 116.5 -243t126.5 -169l23 -13q237 369 275 471t26.5 165t-93.5 142 q112 123 -16 277q85 -142 -24 -238q-41 40 -141 111.5t-99 158.5h240l120 223z" />
<glyph unicode="T" horiz-adv-x="776" d="M781 1289l-625 -3l-158 -225l33 -5l35 50h356q-73 -60 -104 -182v-731l-141 -196h334l134 185l-279 1q78 61 132 185l2 188q99 -83 198 34q-98 -69 -196 43v472h181l165 218l-17 20zM234 876l1 -540q4 -169 -93 -186q138 1 136 183v538q0 177 121 229q-159 -38 -165 -224 z" />
<glyph unicode="U" horiz-adv-x="872" d="M908 396l-29 39l-85 -129q-54 7 -48 153l-1 443q3 242 -144 410l-183 -264l19 -37l54 74q80 -103 80 -319v-176v-242l-82 -109q-96 -20 -188.5 138.5t-96.5 335.5t231 545l-332 1l-145 -190l12 -14q32 39 313 30q-134 -169 -204 -365t26 -409.5t275 -309.5l191 274 q1 -170 119 -272z" />
<glyph unicode="V" horiz-adv-x="805" d="M434 1272l20 -36l54 68q59 -2 91 -135t-64 -284.5t-99.5 -283.5t27.5 -214l-83 -115q-64 51 -52 279v428q-6 238 -82 311l-242 -323l20 -28l72 88q60 0 58 -191l-1 -529q9 -230 146 -309l144 269l167 206q-79 331 60 510t126.5 329t-166.5 204zM376 1377l1 -540 q4 -169 -93 -185q138 0 136 182v538q0 177 121 229q-159 -38 -165 -224z" />
<glyph unicode="W" horiz-adv-x="1187" d="M503 451l-118 -199q-75 72 -63 300v428q-6 238 -82 311l-242 -323l20 -28l72 88q60 0 58 -191l-1 -529q9 -230 146 -309l210 355v97zM816 1269l20 -36l54 68q59 -2 91 -135t-64 -284.5t-99.5 -283.5t27.5 -214l-103 -145q-64 81 -52 309v428q-6 238 -82 311l-242 -323 l20 -28l72 88q60 0 58 -191l-1 -529q9 -230 146 -309q157 296 331 475q-79 331 60 510t126.5 329t-166.5 204zM746 1377l1 -540q4 -169 -93 -185q138 0 136 182v538q0 177 121 229q-159 -38 -165 -224z" />
<glyph unicode="X" horiz-adv-x="851" d="M657 1323l-253 -345l-92 196q-39 96 -103 120l-195 -237l33 -20q56 104 109 2l88 -191q-54 -86 -92.5 -144t-82 -197t-17 -280t149.5 -247l220 403l-20 47l-121 -218q-92 93 -108.5 245t93.5 345l303 -705q37 -96 91 -115l206 224l-16 33q-82 -108 -136 -4l-291 698 l127 168q66 -63 82 -175t-79 -212l12 -45q148 203 161 285.5t4 170.5t-73 198z" />
<glyph unicode="Y" horiz-adv-x="766" d="M520 1292l-168 -217l32 -12q26 55 184 43q-41 -81 -48 -155v-302q-30 -45 -75 -89q-268 194 -237 397t168 340l-249 -2l-157 -224l26 -21q45 69 198 48q-134 -139 -135 -325.5t108 -282t185 -126.5q107 111 168 226q13 -153 -25 -286l-143 -213l24 -15q77 83 132.5 -42.5 t15.5 -235.5q-42 -12 -110.5 91t-128.5 126.5t-107.5 -25t-149.5 -179.5l16 -16q87 61 183.5 -52.5t172.5 -144.5l121 133q172 239 191.5 321.5t-48.5 193.5q-53 54 -116 63l151 325l1 461q3 168 108 199z" />
<glyph unicode="Z" horiz-adv-x="701" d="M234 1298l-106 -258l24 -11q12 63 88 54l266 -2l-128 -318l-152 2l-124 -201l8 -25q36 38 189 37l-282 -572l20 -16q89 81 264.5 26.5t238.5 14.5l168 241l-13 20q-60 -76 -119.5 -72.5t-158.5 44.5t-199 11l144 301l94 -2q-87 -110 38 -214l18 3q-120 86 -16 207 l166 203v37q-64 -53 -224 -50q199 516 282 543z" />
<glyph unicode="[" horiz-adv-x="458" d="M468 1618l-302 -1l-130 -190v-1750l-74 -97l370 1l166 207h-351l1 1630l169 1z" />
<glyph unicode="\" horiz-adv-x="419" d="M478 -242l-104 -97l-414 1665l98 103z" />
<glyph unicode="]" horiz-adv-x="493" d="M-8 -420l302 1l130 190v1750l74 97l-370 -1l-166 -207h351l-1 -1630l-169 -1z" />
<glyph unicode="_" horiz-adv-x="976" d="M732 -269h-438q-208 -8 -292 -137l21 -8q65 45 188 43h521q149 12 245 146l-12 10q-106 -56 -233 -54z" />
<glyph unicode="`" horiz-adv-x="395" d="M264 1032l137 154q-126 -22 -290 153l-117 -121q182 -197 270 -186z" />
<glyph unicode="a" horiz-adv-x="629" d="M361 564v-370q3 -152 105 -198l189 238l-22 19q-91 -145 -108 0l-2 474zM122 673.5q-72 -79.5 -91 -150t-14.5 -137.5t20 -124.5t62.5 -130.5t115 -135l141 171v50l-53 -69q-82 74 -122.5 216.5t-19.5 251t82 115.5h280q9 124 87 155l-10 14l-265 1 q-140 -148 -212 -227.5z" />
<glyph unicode="b" horiz-adv-x="604" d="M-86 1075l30 -28l87 95l2 -739q-4 -291 221 -403q172 189 254 302t94 221t-55.5 214.5t-130.5 199.5l-201 -216v627l110 134l-31 23zM443.5 411q16.5 -144 -97.5 -241q-127 61 -131 260v86q-10 133 78 221q134 -182 150.5 -326zM310 1619l1 -540q4 -169 -93 -185 q138 0 136 182v538q0 177 121 229q-159 -38 -165 -224z" />
<glyph unicode="c" horiz-adv-x="566" d="M108 687q-66 -66 -86 -154t-9 -156t44.5 -133t81 -133.5t138.5 -134.5l251 316l-25 25l-126 -157q-86 58 -168.5 199t-65.5 252.5t102 118.5q55 -24 64 -80q27 -71 -45 -140l23 -15l200 219q104 86 97 158t-117 131l-10 -4q126 -83 99 -150.5t-60 -82.5q21 46 -115 158 q-207 -171 -273 -237z" />
<glyph unicode="d" horiz-adv-x="607" d="M144.5 1149.5q-15.5 -105.5 99.5 -304.5q-149 -194 -191.5 -288.5t-34.5 -210.5t86 -208.5t194 -152.5l121 191l115 170q51 86 50 203t-154 361t-148.5 349.5t43.5 144.5l38 54l-17 25q-186 -228 -201.5 -333.5zM415.5 531q41.5 -107 24.5 -202.5t-64 -127.5 q-122 35 -178.5 154t-34.5 231t104 219q107 -167 148.5 -274zM364 1585l1 -260q4 -169 -93 -185q138 0 136 182v258q0 177 121 229q-159 -38 -165 -224z" />
<glyph unicode="e" horiz-adv-x="504" d="M108 692.5q-66 -65.5 -86 -153.5t-15.5 -156.5t34.5 -132.5t77.5 -132.5t138.5 -134.5l264 329l-28 21l-138 -171q-84 63 -156.5 203.5t-55.5 251.5t102 119q83 -55 66 -150l-139 -147l21 -39l14 20q163 -69 381 128h-18q-200 -162 -328 -77l245 248q17 106 -106 210 q-207 -171 -273 -236.5z" />
<glyph unicode="f" horiz-adv-x="384" d="M356 1402l-267 -299l-1 -247l-161 -180l24 -14q43 57 145 52l1 -668q7 -214 -33 -275q-61 148 -195 135l-134 -176q151 6 222 -146q266 244 306 434l1 720l52 1l128 162l-193 1l1 326l122 1q-31 -163 66 -196l16 5q-110 31 -50 192l140 176z" />
<glyph unicode="g" horiz-adv-x="654" d="M315 -55q0 -54 197 -165q-44 -50 -102.5 -47.5t-183 64t-16.5 186.5l-26 14l-202 -255q179 -156 334 -165q250 145 293.5 237.5t16.5 132.5t-142 99q-65 43 27 171l-38 19q-158 -237 -158 -291zM50.5 282q139.5 -257 227.5 -290q195 298 249.5 409t25 233.5t-83.5 178.5 q245 246 73 397l-112 -185q70 -115 11 -195l-146 107q-384 -398 -244.5 -655zM410 273l-50 -74q-256 268 -193 541q263 -132 243 -467z" />
<glyph unicode="h" horiz-adv-x="667" d="M-86 1065l30 -28l87 96l2 -850q-4 -173 151 -293l192 219l-20 26l-67 -73q-74 64 -74 218v126v143l87 94q114 -53 108 -201l-1 -264q-26 -186 112 -293l207 230l-20 25l-75 -79q-52 12 -44 117q15 343 -0.5 449t-172.5 200l-201 -216v647l110 134l-31 23zM310 1619 l1 -540q4 -169 -93 -185q138 0 136 182v538q0 177 121 229q-159 -38 -165 -224z" />
<glyph unicode="i" horiz-adv-x="430" d="M-16 585l30 -28l107 126l-18 -360q-1 -234 151 -333l192 219l-20 26l-57 -63q-87 94 -84 248l20 478l90 114l-31 23zM30 1182q91 -87 92 -168l-100 -112l34 -27l351 412l-31 27l-102 -122q-19 92 -90 152z" />
<glyph unicode="j" horiz-adv-x="362" d="M-6 585l30 -28l87 106v-610q-8 -297 -109 -351l17 -27q290 130 278 375l-2 818l110 134l-31 23zM10 1182q91 -87 92 -168l-100 -112l34 -27l351 412l-31 27l-102 -122q-19 92 -90 152z" />
<glyph unicode="k" horiz-adv-x="792" d="M289 449q78 -7 143 -198t188 -259l202 252l-28 21l-64 -79q-77 16 -134.5 196t-161.5 206l79 86q89 130 19 254l-134 -164q44 -52 24 -126.5t-134 -149.5zM-34 1086l30 -28l87 106l2 -870q-4 -173 151 -293l192 229l-24 23l-63 -70q-74 54 -74 208v1008l90 104l-31 23z M330 1619l1 -540q4 -169 -93 -185q138 0 136 182v538q0 177 121 229q-159 -38 -165 -224z" />
<glyph unicode="l" horiz-adv-x="386" d="M-54 1086l30 -28l87 106l2 -870q-4 -173 151 -293l192 229l-24 23l-63 -70q-74 54 -84 208v998l100 114l-31 23zM310 1619l1 -540q4 -169 -93 -185q138 0 136 182v538q0 177 121 229q-159 -38 -165 -224z" />
<glyph unicode="m" horiz-adv-x="1125" d="M-60 645l28 -28l88 92q53 -5 44 -109l-8 -317q-8 -173 135 -293l189 189l-19 26l-55 -53q-78 74 -73 228l3 126l5 153l85 88q103 -5 95 -209l-6 -256q-13 -209 97 -297l213 200l-18 25l-74 -63q-46 17 -38 141q25 333 6.5 455.5t-161.5 183.5l-197 -206q1 151 -86 201z M656 656l78 91q103 -5 95 -209l-7 -256q-13 -209 97 -297l213 200l-18 25l-73 -63q-47 17 -38 141q24 333 9 436q78 126 271 47q-162 106 -280 4q-13 91 -156 152l-197 -216z" />
<glyph unicode="n" horiz-adv-x="772" d="M-20 645l28 -28l88 92q53 -5 44 -109l-8 -317q-8 -173 135 -293l189 189l-19 26l-55 -53q-78 74 -73 228l3 126l6 173l84 78q103 -15 95 -219l-6 -256q-13 -209 97 -297l213 200l-18 25l-74 -63q-46 17 -38 141q25 333 6.5 455.5t-161.5 183.5l-197 -196q1 141 -86 191z " />
<glyph unicode="o" horiz-adv-x="564" d="M46 281.5q140 -257.5 227 -290.5q195 298 249.5 409t25.5 247t-258 289q-384 -397 -244 -654.5zM274 706q-142 -132 47 -408q-147 336 10 354q131 -153 83 -364l-68 -108q-117 70 -183.5 247.5t18.5 322.5q67 -4 93 -44z" />
<glyph unicode="p" horiz-adv-x="636" d="M-40 658l19 -33l72 76q38 -10 35 -175l-1 -682q-14 -146 -163 -233h326l168 187l-292 -5q61 32 116 163l4 134q36 -62 91 -94q51 60 124 179t130 238t11 239.5t-103.5 175t-2.5 133.5l-2 23l-234 -272q9 147 -70 214zM475 264q-53 -52 -98.5 -31.5t-68.5 129.5l-47 -84 l-1 352l48 64q200 -200 167 -430zM-15 393l1 -540q4 -169 -93 -185q138 0 136 182v538q0 177 121 229q-158 -38 -165 -224z" />
<glyph unicode="q" horiz-adv-x="580" d="M62.5 273.5q148.5 -252.5 192.5 -267.5l-165 -289l37 -24l39 57q80 -4 186.5 -80.5t181.5 -43.5l155 276l-38 15l-37 -76q-76 -28 -168.5 34.5t-179.5 71.5q218 349 268.5 461.5t17 247.5t-268.5 280q-369 -410 -220.5 -662.5zM421 276l-46 -75q-266 259 -212 535 q267 -124 258 -460z" />
<glyph unicode="r" horiz-adv-x="583" d="M-16 635l28 -28l83 96l2 -420q-4 -173 143 -293l186 231l-23 24l-64 -81q-69 62 -69 216v126v143l60 80q40 -108 129 -139l-52 -65l25 -23l184 227q147 144 60 329q44 -214 -96 -310q-89 12 -130 179l-180 -216q0 197 -42 211z" />
<glyph unicode="s" horiz-adv-x="571" d="M316 900q-63 -81 -135.5 -157t-87 -118t20.5 -83t187 -153.5t127 -168.5l-15 -27q-54 -77 -266 177l25 36l-14 16l-139 -174q247 -311 307 -229l36 43q153 186 183.5 236t20 94t-72 110t-165 125t-102.5 92h224l112 180q91 106 -85 161l-5 2q170 -70 57 -162h-213z" />
<glyph unicode="t" horiz-adv-x="571" d="M-13 656l26 -25q57 80 169 89l1 -437q-4 -173 141 -293l192 229l-20 26l-67 -73q-74 54 -74 208v347h85q-42 -170 84 -292l12 11q-105 122 -47 282l109 168h-243v156l110 140l-31 23z" />
<glyph unicode="u" horiz-adv-x="701" d="M750 247l-28 28l-61 -86q-59 13 -59 147v515l80 87l-22 21l-354 -386l22 -23l106 118l1 -405l-80 -98q-99 5 -98 209v470l78 94l-20 20l-361 -391l18 -25l111 113v-457q11 -145 167 -213l185 216q-4 -150 136 -211zM304 1157l1 -540q4 -169 -93 -185q138 0 136 182v538 q0 177 121 229q-159 -38 -165 -224z" />
<glyph unicode="v" horiz-adv-x="661" d="M284 585l30 -28l97 126l6 -195q8 -169 -42 -267l-46 -49q-87 94 -84 248v468l110 124l-31 23l-380 -450l30 -28l90 116l-1 -350q-1 -234 151 -333l192 219q150 144 179 291v388l110 124l-31 23z" />
<glyph unicode="w" horiz-adv-x="1034" d="M-36 865l30 -28l107 126q341 3 -18 -209v-431q-1 -234 151 -333l182 199l-10 46l-57 -63q-87 94 -84 248l4 379q358 297 16 379l90 114l-31 23zM634 585l30 -28l97 126l6 -195q8 -169 -42 -267l-46 -49q-87 94 -84 248v468l110 124l-31 23l-380 -450l30 -28l90 116 l-1 -350q-1 -234 151 -333l192 219q150 144 179 291v388l110 124l-31 23z" />
<glyph unicode="x" horiz-adv-x="667" d="M437 78q29 -56 91 -78l154 237l-15 26q-52 -99 -103 -25l-68 155q61 132 133.5 241.5t-97.5 287.5l-199 -172l20 -30l75 64q151 -192 48 -359l-222 446q-25 64 -54 16l-167 -176l20 -34q47 62 83 3l49 -101q-120 -149 -159.5 -285t147.5 -303l161 234l-22 37l-54 -77 q-191 207 -56 352q205 -414 235 -459z" />
<glyph unicode="y" horiz-adv-x="711" d="M94 -85l-121 -168q128 -1 257 -157l136 122q226 163 256 356v813l80 97l-22 21l-354 -416l22 -23l106 118l1 -405l-80 -98q-99 5 -98 209v490l78 104l-20 20l-361 -421l18 -25l111 113v-457q11 -145 167 -213l185 216q11 -291 -114 -471q-69 132 -247 175zM326 1203 l1 -540q4 -169 -93 -185q138 0 136 182v538q0 177 121 229q-159 -38 -165 -224zM568 1616q62 -59 76 -128l110 101q-33 96 -81 137zM498 1415q62 -59 76 -128l110 101q-33 96 -81 137zM403 1569q62 -59 76 -128l110 101q-33 96 -81 137z" />
<glyph unicode="z" horiz-adv-x="537" d="M153 904l-147 -243l20 -19l48 71l284 -1l-84 -177l-125 -1l-133 -198q68 50 186 40l-206 -364l22 -12q102 75 191 36.5t127 -47.5q-24 -191 131 -243l14 14q-152 48 -92 238l146 264l-26 10q-39 -88 -167 -43.5t-176 12.5l84 133h144l140 201q-82 -60 -214 -40l192 359 l-13 10h-346z" />
<glyph unicode="{" horiz-adv-x="455" d="M105 1061v-242q1 -140 -82 -260q83 -136 82 -251q9 -639 107 -708l133 169l-10 24q-83 -113 -104 448v152q-15 133 -82 176q78 62 72 247v294q7 315 79 426l-11 26q-189 -235 -184 -501z" />
<glyph unicode="}" horiz-adv-x="348" d="M243 101v242q-1 140 82 260q-83 136 -82 251q-9 639 -107 708l-133 -169l10 -24q83 113 104 -448v-152q15 -133 82 -176q-78 -62 -72 -247v-294q-7 -315 -79 -426l11 -26q189 235 184 501z" />
<glyph unicode="&#xa2;" horiz-adv-x="750" d="M227 1132l1 -1509l62 114v1520zM108 687q-66 -66 -86 -154t-15.5 -157t34.5 -133t77.5 -132.5t138.5 -134.5l251 316l-25 25l-126 -157q-86 58 -158.5 199t-55.5 252.5t102 118.5q55 -24 64 -80q27 -71 -45 -140l23 -15l200 219q56 71 -106 210q-207 -171 -273 -237z" />
<glyph unicode="&#xa3;" horiz-adv-x="712" d="M611 1468l-215 -290q4 162 -78 242l-209 -283l27 -24l64 83q43 -2 40 -111l-52 -379l-44 1l-108 -165h140l-39 -325l-134 -218l12 -22q205 75 355.5 -80t332.5 -137l118 244l-23 12q-100 -110 -312 70.5t-320 114.5q102 48 118 141l27 205h108q-60 -155 81 -186h17 q-138 36 -68 184l116 162l-236 -1l58 394l120 164q2 -126 135 -198l127 143q-137 81 -158 259z" />
<glyph unicode="&#xa9;" horiz-adv-x="526" d="M246 1196q-34 -33 -61 -82.5t-39.5 -84t-16 -90.5t20.5 -110.5t121 -137.5l87 135l-11 8l-31 -48q-49 6 -93.5 80.5t-40.5 153t28 101.5h77q-39 -61 9 -109l3 5q-41 45 8 102l55 77h-116zM74 1104q-44 -82 -56 -160t17.5 -177.5t103.5 -176.5l58 46q-241 286 -4 611 l-13 5q-62 -66 -106 -148zM456 798q44 82 56 160t-17.5 177.5t-103.5 176.5l-58 -46q241 -286 4 -611l13 -5q62 66 106 148z" />
<glyph unicode="&#xad;" d="M571 640h-333q-158 -13 -222 -231l16 -13q49 76 143 72h396q113 21 186 247l-9 16q-81 -94 -177 -91z" />
<glyph unicode="&#xae;" horiz-adv-x="631" d="M74 1104q-44 -82 -56 -160t17.5 -177.5t103.5 -176.5l58 46q-241 286 -4 611l-13 5q-62 -66 -106 -148zM556 798q44 82 56 160t-17.5 177.5t-103.5 176.5l-58 -46q241 -286 4 -611l13 -5q62 66 106 148zM336 1050q11 -71 -44 -107l-26 -22v179l29 31q30 -10 41 -81z M150 1092l9 -8l32 29q11 -1 12 -50l-1 -276l-51 -79h101l54 77h-83q40 17 46 79v34q30 38 57 4.5t49 -146.5q13 -41 45 -52l78 68l-7 10l-25 -21q-29 2 -43 81.5t-60 116.5l-25 -1q68 64 63 124.5t-61 115.5l-71 -76q0 43 -25 76z" />
<glyph unicode="&#xbc;" horiz-adv-x="1026" d="M415 585zM775 5zM795 -5zM415 585zM210 -242l14 -77l504 1645l-98 103zM775 5zM795 -5zM296 1300l-20 10l-214 -164l22 -8l66 47v-505l-113 -117h267l107 111h-223q62 37 105 111zM640 693q-136 -518 -200 -559l23 -18q35 51 234 39v-47l-136 -110l251 1l141 117l-25 8 q-67 -33 -185 -20q61 25 71 53h130l91 128l-12 14q-86 -39 -205 -35v161q-14 67 40 119l-9 14l-159 -135l2 -162h-112q179 489 258 528l-7 18z" />
<glyph unicode="&#xbd;" horiz-adv-x="987" d="M415 585zM210 -242l14 -77l504 1645l-98 103zM775 5zM795 -5zM297 1300l-19 10l-213 -164l22 -8l66 47l-1 -505l-112 -117h265l107 111h-222q62 37 105 111zM553 538.5q-52 -84.5 -17 -154.5t124 -106l98 100q-217 130 -50 267q84 -57 133.5 -170t-332.5 -477l313 1 l162 134l-287 1q258 210 289.5 328t-198.5 283v0q-183 -122 -235 -206.5z" />
<glyph unicode="&#xbe;" horiz-adv-x="1046" d="M415 585zM775 5zM795 -5zM415 585zM250 -242l14 -77l504 1645l-98 103zM775 5zM795 -5zM153 1295l-143 -147l19 -12l51 49h222l-188 -197l24 -8q49 50 122 17t110 -128t-71 -202q-33 153 -162 260l-120 -112q126 -64 210 -278q141 162 203 233.5t42 175.5 q-18 112 -188 175l160 175zM650 693q-136 -518 -200 -559l23 -18q35 51 234 39v-47l-136 -110l251 1l141 117l-25 8q-67 -33 -185 -20q61 25 71 53h130l91 128l-12 14q-86 -39 -205 -35v161q-14 67 40 119l-9 14l-159 -135l2 -162h-112q179 489 258 528l-7 18z" />
<glyph unicode="&#xc7;" horiz-adv-x="729" d="M360 11v-203l12 -5q16 29 58 69q59 -84 60.5 -126t-15.5 -80q-17 28 -47.5 48t-27.5 56l21 24l-10 10l-73 -90q0 -48 38.5 -78t44.5 -54q27 21 81.5 104.5t52.5 124t-22.5 60t-28.5 39.5t-4 53l-95 -99v146zM321 1299q-86 -85 -156.5 -215t-103 -219t-41 -235 t53.5 -289.5t312 -359.5l224 352l-28 21l-81 -125q-124 15 -240 209.5t-105.5 399.5t72.5 266h200q-101 -158 23 -284l7 12q-106 119 22 268l141 200z" />
<glyph unicode="&#xd7;" horiz-adv-x="860" d="M786 299q-64 222 -220 304l166 330l-15 8l-290 -417l-1 -35q175 -111 258 -362zM120 839q64 -222 220 -304l-206 -360l15 -18l330 457l1 35q-175 111 -258 362z" />
<glyph unicode="&#xe7;" horiz-adv-x="541" d="M250 11v-203l12 -5q16 29 58 69q59 -84 60.5 -126t-15.5 -80q-17 28 -47.5 48t-27.5 56l21 24l-10 10l-73 -90q0 -48 38.5 -78t44.5 -54q27 21 81.5 104.5t52.5 124t-22.5 60t-28.5 39.5t-4 53l-95 -99v146zM108 687q-66 -66 -86 -154t-9 -156t44.5 -133t81 -133.5 t138.5 -134.5l251 316l-25 25l-126 -157q-86 58 -168.5 199t-65.5 252.5t102 118.5q55 -24 64 -80q27 -71 -45 -140l23 -15l200 219q104 86 97 158t-117 131l-10 -4q126 -83 99 -150.5t-60 -82.5q21 46 -115 158q-207 -171 -273 -237z" />
<glyph unicode="&#xf7;" horiz-adv-x="1105" d="M829 690h-482q-185 -48 -321 -201l22 -13q72 76 208 72l571 -30q136 48 270 247l-14 16q-117 -94 -254 -91zM393 385q91 -87 112 -188l162 148q-49 142 -120 202zM473 859q91 -87 112 -188l162 148q-49 142 -120 202z" />
<glyph unicode="&#x2000;" horiz-adv-x="921" />
<glyph unicode="&#x2001;" horiz-adv-x="1843" />
<glyph unicode="&#x2002;" horiz-adv-x="921" />
<glyph unicode="&#x2003;" horiz-adv-x="1843" />
<glyph unicode="&#x2004;" horiz-adv-x="614" />
<glyph unicode="&#x2005;" horiz-adv-x="460" />
<glyph unicode="&#x2006;" horiz-adv-x="307" />
<glyph unicode="&#x2007;" horiz-adv-x="307" />
<glyph unicode="&#x2008;" horiz-adv-x="230" />
<glyph unicode="&#x2009;" horiz-adv-x="368" />
<glyph unicode="&#x200a;" horiz-adv-x="102" />
<glyph unicode="&#x2010;" d="M571 640h-333q-158 -13 -222 -231l16 -13q49 76 143 72h396q113 21 186 247l-9 16q-81 -94 -177 -91z" />
<glyph unicode="&#x2011;" d="M571 640h-333q-158 -13 -222 -231l16 -13q49 76 143 72h396q113 21 186 247l-9 16q-81 -94 -177 -91z" />
<glyph unicode="&#x2012;" d="M571 640h-333q-158 -13 -222 -231l16 -13q49 76 143 72h396q113 21 186 247l-9 16q-81 -94 -177 -91z" />
<glyph unicode="&#x2013;" horiz-adv-x="1058" d="M783 640h-460q-219 -13 -307 -231l22 -13q68 76 198 72h547q156 21 257 247l-12 16q-112 -94 -245 -91z" />
<glyph unicode="&#x2014;" horiz-adv-x="2082" d="M1550 640h-920q-437 -13 -614 -231l44 -13q136 76 395 72h1095q312 21 514 247l-25 16q-224 -94 -489 -91z" />
<glyph unicode="&#x2018;" horiz-adv-x="299" d="M273 1181q-91 87 -92 158l100 112l-34 27l-248 -277q49 -122 120 -182z" />
<glyph unicode="&#x2019;" horiz-adv-x="260" d="M7 1317q91 -87 92 -158l-100 -112l34 -27l248 277q-49 122 -120 182z" />
<glyph unicode="&#x201c;" horiz-adv-x="514" d="M493 1181q-91 87 -92 158l100 112l-34 27l-248 -277q49 -122 120 -182zM273 1181q-91 87 -92 158l100 112l-34 27l-248 -277q49 -122 120 -182z" />
<glyph unicode="&#x201d;" horiz-adv-x="514" d="M7 1317q91 -87 92 -158l-100 -112l34 -27l248 277q-49 122 -120 182zM227 1317q91 -87 92 -158l-100 -112l34 -27l248 277q-49 122 -120 182z" />
<glyph unicode="&#x2026;" horiz-adv-x="805" d="M-10 162q91 -87 112 -188l162 148q-49 142 -120 202zM260 162q91 -87 112 -188l162 148q-49 142 -120 202zM530 162q91 -87 112 -188l162 148q-49 142 -120 202z" />
<glyph unicode="&#x202f;" horiz-adv-x="368" />
<glyph unicode="&#x205f;" horiz-adv-x="460" />
<glyph unicode="&#x2122;" horiz-adv-x="725" d="M-13 973l11 -11q25 35 73 39l1 -189q-2 -75 61 -127l83 99l-9 11l-29 -31q-32 23 -32 90v150h45q-24 -42 3 -83l5 5q-24 39 5 78l47 73h-105v67l48 61l-14 10zM196 968l12 -12l38 40q23 -2 19 -47l-3 -137q-4 -75 58 -127l82 82l-9 11l-23 -23q-34 32 -32 99l1 54l3 67 l36 38q45 -3 41 -91l-2 -111q-6 -90 42 -128l92 87l-8 10l-32 -27q-20 7 -16 61q10 144 2 197t-69 79l-86 -89q1 66 -37 87zM505 973l34 40q45 -3 41 -91l-3 -111q-5 -90 42 -128l92 87l-8 10l-31 -27q-21 7 -17 61q11 144 4 188q34 55 117 21q-70 46 -121 2q-5 39 -67 65 l-85 -93z" />
<glyph unicode="&#xe000;" horiz-adv-x="920" d="M0 920h920v-920h-920v920z" />
</font>
</defs>
</svg>
